Cineform Neo3d no audio at DVinfo.net

Go Back   DV Info Net > Cross-Platform Post Production Solutions > CineForm Software Showcase

CineForm Software Showcase
Cross platform digital intermediates for independent filmmakers.


Reply
 
Thread Tools Search this Thread
Old June 29th, 2011, 11:22 AM   #1
Regular Crew
 
Join Date: Jun 2011
Location: Germany
Posts: 163
Cineform Neo3d no audio

hello in cineform neo3d convert one video avchd mts filewith HDLink to mov put no audio how to fix this? view the codec --- Codec ID : sowt

italian_pizza.mov
Format : MPEG-4
Format profile : QuickTime
Codec ID : qt
File size : 215 MiB
Duration : 22s 360ms
Overall bit rate : 80.8 Mbps
Encoded date : UTC 2011-06-29 17:13:50
Tagged date : UTC 2011-06-29 17:14:29
Writing library : Apple QuickTime

Video
ID : 1
Format : CineForm
Codec ID : CFHD
Codec ID/Info : CineForm High-Definition (HD) wavelet codec
Duration : 22s 360ms
Bit rate mode : Variable
Bit rate : 79.2 Mbps
Width : 1 920 pixels
Height : 1 080 pixels
Display aspect ratio : 16:9
Frame rate mode : Constant
Frame rate : 25.000 fps
Bits/(Pixel*Frame) : 1.529
Stream size : 211 MiB (98%)
Language : English
Encoded date : UTC 2011-06-29 17:13:50
Tagged date : UTC 2011-06-29 17:14:29

Audio
ID : 2
Format : PCM
Format settings, Endianness : Little
Format settings, Sign : Signed
Codec ID : sowt
Duration : 22s 360ms
Bit rate mode : Constant
Bit rate : 1 536 Kbps
Channel(s) : 2 channels
Sampling rate : 48.0 KHz
Bit depth : 16 bits
Stream size : 4.09 MiB (2%)
Language : English
Encoded date : UTC 2011-06-29 17:13:50
Tagged date : UTC 2011-06-29 17:14:29

Menu
ID : 3
Language : English
Encoded date : UTC 2011-06-29 17:13:50
Tagged date : UTC 2011-06-29 17:14:29
Serggio Lamas is offline   Reply With Quote
Old June 29th, 2011, 12:26 PM   #2
Regular Crew
 
Join Date: Oct 2010
Location: italy
Posts: 105
Re: Cineform Neo3d no audio

neo3d for pc or mac?
what kind of avchd?
avchd often have ac3 audio, and you need to have a decoder on your system to read it.
you can find a link of free ac3 decoder in a page where you download cineform.
Carlo Macchiavello is offline   Reply With Quote
Old June 29th, 2011, 01:35 PM   #3
Regular Crew
 
Join Date: Jun 2011
Location: Germany
Posts: 163
Re: Cineform Neo3d no audio

neo3d for pc
video avchd mts from sony nx5 hd 1920x1080 17 mbs
Audio
ID : 2
Format : PCM
Format settings, Endianness : Little
Format settings, Sign : Signed
Codec ID : sowt
Duration : 22s 360ms
Bit rate mode : Constant
Bit rate : 1 536 Kbps
Channel(s) : 2 channels
Sampling rate : 48.0 KHz
Bit depth : 16 bits
Stream size : 4.09 MiB (2%)


i have instal ac3 filter decoding put not work the audio in convert file
Serggio Lamas is offline   Reply With Quote
Old June 30th, 2011, 03:16 PM   #4
Regular Crew
 
Join Date: Jan 2009
Location: Edmonton, Canada
Posts: 91
Re: Cineform Neo3d no audio

the sony nx5 hd records to linear PCM so no ac3 issues...
and it is 16 bit (24bit is incompatible with CF)

so thats a hard one to diagnose....it also records Dolby digital as well as PCM in HD mode...and that would bring some of the AC3 issues into play...but your codec report says linear PCM

I did a quick google search and it looks like some people have had problems with signed PCM in quicktime containers....but not sure how accurate that is
Mike Harrington is offline   Reply
Reply

DV Info Net refers all where-to-buy and where-to-rent questions exclusively to these trusted full line dealers and rental houses...

Professional Video
(800) 833-4801
Portland, OR

B&H Photo Video
(866) 521-7381
New York, NY

Z.G.C.
(973) 335-4460
Mountain Lakes, NJ

Abel Cine Tech
(888) 700-4416
N.Y. NY & L.A. CA

Precision Camera
(800) 677-1023
Austin, TX

DV Info Net also encourages you to support local businesses and buy from an authorized dealer in your neighborhood.
  You are here: DV Info Net > Cross-Platform Post Production Solutions > CineForm Software Showcase

Thread Tools Search this Thread
Search this Thread:

Advanced Search

 



Google
 

All times are GMT -6. The time now is 08:56 PM.


DV Info Net -- Real Names, Real People, Real Info!
1998-2017 The Digital Video Information Network