Import DV AVI files at

Go Back   DV Info Net > Windows / PC Post Production Solutions > What Happens in Vegas...

What Happens in Vegas...
...stays in Vegas! This PC-based editing app is a safe bet with these tips.

Thread Tools Search this Thread
Old December 17th, 2015, 05:15 PM   #1
Inner Circle
Join Date: Aug 2005
Location: Atlanta/USA
Posts: 2,502
Import DV AVI files

I am giving Vegas Pro 13 a try as a possible alternate to my existing NLE.

Trying to import the most ancient file known to a Windows computer (OK, one of the oldest files) and I can't believe my eyes... Vegas can't work with good old DV AVI files??? What in the world are you thinking Sony? The error message is : "The file is most likely corrupted or of an unknown format". Unknown to who?

The files have been captured from a Sony PD170 via firewire to a Focus FS-H200, then copied from the CF card to the hard drive. They work fine in every player known to man, even primitive Windows Media Player, so it doesn't seem to be a codec issue. They work in every NLE and video processor I have ever tried in my life.

At first I thought I came across a corrupted file, but then I Googled the problem and voila, the interweb is full of good-will advice from installing the worst codec pack ever (K-Lite) to encoding to a "more acceptable" format - give me a break! What can be more acceptable than DV AVI???

Here's the format report from MediaInfo:

Format : AVI
Format/Info : Audio Video Interleave
Commercial name : DVCPRO
File size : 1.86 GiB
Duration : 9mn 13s
Overall bit rate mode : Constant
Overall bit rate : 28.9 Mbps
Recorded date : 2015-12-16 11:31:58.000

ID : 0
Format : DV
Commercial name : DVCPRO
Duration : 9mn 13s
Bit rate mode : Constant
Bit rate : 24.4 Mbps
Encoded bit rate : 28.8 Mbps
Width : 720 pixels
Height : 480 pixels
Display aspect ratio : 4:3
Frame rate mode : Constant
Frame rate : 29.970 (29970/1000) fps
Standard : NTSC
Chroma subsampling : 4:1:1
Bit depth : 8 bits
Scan type : Interlaced
Scan order : Bottom Field First
Compression mode : Lossy
Bits/(Pixel*Frame) : 2.357
Stream size : 1.85 GiB (100%)
Encoding settings : ae mode=manual / wb mode=one push / white balance= / fcm=manual focus

ID : 0-0
Format : PCM
Muxing mode : DV
Muxing mode, more info : Muxed in Video #1
Duration : 9mn 13s
Bit rate mode : Constant
Bit rate : 1 536 Kbps
Encoded bit rate : 0 bps
Channel(s) : 2 channels
Sampling rate : 48.0 KHz
Bit depth : 16 bits
Stream size : 101 MiB (5%)
Encoded stream size : 0.00 Byte (0%)

Please tell me I'm doing something wrong and Vegas does in fact work with DV AVI...

I'm on a Win7Ultimate/64 PC.
Ervin Farkas, CDVS
Certified Legal Videographer
Ervin Farkas is offline   Reply With Quote
Old December 17th, 2015, 10:12 PM   #2
Major Player
Join Date: Jan 2004
Location: Los Angeles, CA
Posts: 215
Re: Import DV AVI files

The file is identified as DVCPRO, not "standard" DV. I recall DVCPRO as a Panasonic DV "format" that may not be read properly by Vegas. DVCPRO tapes had a wider (18micron) track pitch than DVCAM (15) or regular DV (10). Seems like the Focus 200 transcoded the DV files to DVCPRO along the way.
In any case, Vehas is not reading the files as standard DV.
Even the DVCPRO HD100 format was not natively recognized by Vegas until later versions of Vegas pro.

Perhaps your best bet would be to render the files to "standard" DV (or an intermediary format like Cineform) in your other NLE and then import into Vegas.
A PIA, I know, but it would likely work for you.
Ken Plotin is offline   Reply With Quote
Old December 18th, 2015, 01:38 AM   #3
Join Date: Mar 2004
Location: upper hunter, australia
Posts: 1,315
Re: Import DV AVI files

ken hits the nail upon the head....

vegas works very well with dv - not so with dvpro...
Leslie Wand is offline   Reply

DV Info Net refers all where-to-buy and where-to-rent questions exclusively to these trusted full line dealers and rental houses...

Professional Video
(800) 833-4801
Portland, OR

Omega Broadcast
(512) 251-7778
Austin, TX

(973) 335-4460
Mountain Lakes, NJ

Abel Cine Tech
(888) 700-4416
N.Y. NY & L.A. CA

(800) 238-8480
Glendale, CA

Precision Camera
(800) 677-1023
Austin, TX

DV Info Net also encourages you to support local businesses and buy from an authorized dealer in your neighborhood.
  You are here: DV Info Net > Windows / PC Post Production Solutions > What Happens in Vegas...

Thread Tools Search this Thread
Search this Thread:

Advanced Search



All times are GMT -6. The time now is 12:46 PM.

DV Info Net -- Real Names, Real People, Real Info!
1998-2015 The Digital Video Information Network